HERE0:5

hd,x264 Archives - India Today News

Star Trek Beyond 2016 Online Movie
USS Enterprise crew discover until much of the space that has not been used, where they face a ruthless enemy that puts their new and everything Federation intends to test. Collateral Beauty 2017 movie Director: Justin LinAuthor: Simon Pegg, Doug JungStars: Chris Pine, Zachary Quinto, Karl UrbanGenre: Action | Adventure | Sci-Fi | thrillerCountry: United StatesEnglishFormat: MPEG-4Format profile: Base MediaCodec ID: IsomFile size: 758 MiBDuration: 1h 53mnin keseluruhanmode Pricebits: VariableIn keseluruhanKadarbit: 936 KbpsEncoded Date: 09/08/2016 14:30:05 UTCTagged date: 08/09/2016 14:30:05 UTCwritten request: Lite MP4 ToolvideoID: 1Format: AVCFormat / Info: Advanced Video CodecFormat profile: / * * /formatting settings, CABAC: Yesformatting settings, reframes: 3 frameCodec ID: avc1Codec ID / Info: Advanced Video CodingDuration: 1h 53mnBit rates: 800 KbpsThe maximum bit rate: 3884 KbpsWidth: 720 pixelsHeight: 410 pixelsscreen rasioaspek16: 9Framemod price: ConstantFrame Price:fpsColor Space: YUVChroma subsampling: 4: 2: 0Bit depth: 8 bitsScan type: ProgressiveBits / (Pixel * Frame):Stream size: 652 MiB (86%)Title: imported by the GPAC (. Buddies In India 2017 Internal Rev 5)Writing library: x264 core 80 r1376 3feaec2AudioID: 2Format: AACFormat / Info: Advanced Audio CodecFormat profile: LCCodec ID: 40Duration: 1h 53mnBit Price mode: VariableBit rates: 128 KbpsThe maximum bit rate: 149 KbpsChannel count: 1 channeljawatanChannel:Front: Csampling rates: KHzCompressionmodes: lossyStream size: 104 MiB (14%)Encoded Date: 08/09/2016 14:30:18 UTCTagged date: 09/08/2016 14:30:19 UTC.....Star Trek Beyond 2016 full watch movieStar Trek Beyond 2016 online full movieStar Trek Beyond 2016 watch fullUser votes 31 4 [...]
0
Like
Save
A Monster Calls 2017 Full Watch
Conor 12 years, dealing with his mother's illness, her grandmother, who less sympathetic, and bullying classmates, find a most unlikely ally as a monster appears in his bedroom window. http://www.debamakina.com/?p=54 http://indiatodaynews.in/beyond-the-call-of-duty-2016-full-watch-movie-dual-audio/ Ancient, wild and relentless, sample Conor guide in the journey of courage, faith and truth.. Power Rangers 2017 ....A Monster Calls 2017 Online Movie dual audio englishA Monster Calls 2017 English Full Online MovieA Monster Calls 2017 Full WatchUser votes 42 5 [...]
0
Like
Save
Logan 2017 dual audio movie full online
In the near future, take care of patients bored Logan Professor X lies outside the Mexican border. But Logan is trying to hide from the world and his legacy part, when he reached the young mutant, pursued by dark forces. In the near future,care of patients bored Logan Professor X lies outside the Mexican border. http://expertise-sudebnaya.ru/t2-trainspotting-2017-dual-audio-free-online-movie/ But Logan is trying to hide from the world and his legacy part, when he reached the young mutant, pursued by dark forces.proslavlenyycariadbywyd real interracial couples nadhamira courageRichard and Mildred Love, who fell in love and married couple, living in Central Point, a small town in Virginia that was a given surrounding areas in Latin America. However, it was in Virginia, where they made their home and start a family in the first placein prison and then deported. Collateral Beauty 2017 full online Richard and Mildred moved their children in downtown Washington when teuluiddynt, to feel it, and no more than mijinimazingira not feel at home. Finally, pull its roots in Virginia increases Mildred way to try to find a way backInstallin a world like ours, but only live animals, Sing Star Buster Moon, spruce Koala reigned once great theater, which fell on hard times. Buster eternal hope right, maybe a little rascal who loves theater is all over and done nothing to save. awrlifes person and destroyed his ambition, hehasopportunity mwishokurejesha a faded jewel to its former glory, producing the world's largest singing competition.. Almost Christmas 2017 watch online movie 1080p English ...Logan 2017 watch onlineLogan 2017 OnlineLogan 2017 Free Dual Audio watch movie onlineUser votes 34 3 [...]
0
Like
Save