Star Trek Beyond 2016 Online Movie

Star Trek Beyond 2016 Online Movie

USS Enterprise crew discover until much of the space that has not been used, where they face a ruthless enemy that puts their new and everything Federation intends to test. Collateral Beauty 2017 movie

Director: Justin Lin

Author: Simon Pegg, Doug Jung

Stars: Chris Pine, Zachary Quinto, Karl Urban

Genre: Action | Adventure | Sci-Fi | thriller

Country: United States

English

Format: MPEG-4

Format profile: Base Media

Codec ID: Isom

File size: 758 MiB

Duration: 1h 53mn

in keseluruhanmode Pricebits: Variable

In keseluruhanKadarbit: 936 Kbps

Encoded Date: 09/08/2016 14:30:05 UTC

Tagged date: 08/09/2016 14:30:05 UTC

written request: Lite MP4 Tool

video

ID: 1

Format: AVC

Format / Info: Advanced Video Codec

Format profile: / * * /

formatting settings, CABAC: Yes

formatting settings, reframes: 3 frame

Codec ID: avc1

Codec ID / Info: Advanced Video Coding

Duration: 1h 53mn

Bit rates: 800 Kbps

The maximum bit rate: 3884 Kbps

Width: 720 pixels

Height: 410 pixels

screen rasioaspek16: 9

Framemod price: Constant

Frame Price:fps

Color Space: YUV

Chroma subsampling: 4: 2: 0

Bit depth: 8 bits

Scan type: Progressive

Bits / (Pixel * Frame):

Stream size: 652 MiB (86%)

Title: imported by the GPAC (.
Collateral Beauty 2017 movie
org.
Hidden Figures 2017 com/?p=40″>http://www.debamakina.com/?p=40
br/sem-categoria/buddies-in-india-2017-watch-online-movie/”>Buddies In India 2017 Internal Rev 5)

Writing library: x264 core 80 r1376 3feaec2

Audio

ID: 2

Format: AAC

Format / Info: Advanced Audio Codec

Format profile: LC

Codec ID: 40

Duration: 1h 53mn

Bit Price mode: Variable

Bit rates: 128 Kbps

The maximum bit rate: 149 Kbps

Channel count: 1 channel

jawatanChannel:Front: C

sampling rates: KHz

Compressionmodes: lossy

Stream size: 104 MiB (14%)

Encoded Date: 08/09/2016 14:30:18 UTC

Tagged date: 09/08/2016 14:30:19 UTC

…..

  • Star Trek Beyond 2016 full watch movie
  • Star Trek Beyond 2016 online full movie
  • Star Trek Beyond 2016 watch full

User votes 31 4

0
Like
Save

Comments

Write a comment

*